#TITLE:174619_Turbo_;
#SUBTITLE:;
#ARTIST:Unknown artist;
#TITLETRANSLIT:;
#SUBTITLETRANSLIT:;
#ARTISTTRANSLIT:;
#CREDIT:;
#BANNER:;
#BACKGROUND:;
#LYRICSPATH:;
#CDTITLE:;
#MUSIC:174619_Turbo_.mp3;
#OFFSET:-0.040;
#SAMPLESTART:100.000;
#SAMPLELENGTH:12.000;
#SELECTABLE:YES;
#BPMS:0.000=180.021;
#STOPS:;
#BGCHANGES:;
// cache tags:
#FIRSTBEAT:16.000;
#LASTBEAT:580.000;
#SONGFILENAME:Songs/Music V.I.P ^_^/Turbo/174619_Turbo_.sm;
#HASMUSIC:1;
#HASBANNER:0;
#MUSICLENGTH:224.052;
// end cache tags

//---------------dance-single - Copied from----------------
#NOTES:
     dance-single:
     Copied from:
     Medium:
     1:
     1.000,1.000,1.000,0.022,1.000,1657.000,249.000,5.000,0.000,0.000:
0000
0000
0000
0000
,
0000
0000
0000
0000
,
0000
0000
0000
0000
,
0000
0000
0000
0000
,
1001
0000
0000
0000
,
0000
0000
0000
0000
,
0000
0000
0000
0000
,
0000
0000
0000
0000
,
0001
0000
1000
0000
0001
0010
1000
0000
1000
0000
0001
0000
1000
0100
0001
0000
,
0001
0000
1000
0000
1000
0010
1000
0000
0001
0000
1000
0000
0001
0100
0001
0000
,
0001
0000
1000
0000
1000
0100
0010
0000
0001
0000
1000
0000
0001
0010
0100
0000
,
1000
0000
0001
0000
1000
0001
1000
0000
0001
0000
0010
0000
1100
0000
1100
0000
,
1100
0000
0001
0000
0100
0010
0001
0000
0001
0000
1000
0000
0010
0100
1000
0000
,
1000
0000
0100
0000
0001
0010
0001
0000
0100
0000
1000
0000
0100
1000
0100
0000
,
1000
0000
0001
0000
0100
0010
0100
0000
0001
0000
1000
0000
0010
0100
0010
0000
,
0001
0000
0010
0000
1100
0010
0001
0000
1100
0000
0001
0000
1100
0000
1001
0110
,
1001
0100
0011
0100
1000
0100
0011
0001
,
0010
0100
1100
1000
0100
0010
0011
0100
,
0010
0100
1001
0010
0100
0010
1001
0100
,
0010
0001
0011
0010
0100
1000
1100
1100
,
1100
0001
0101
0010
0100
1000
1010
1000
,
0100
0010
1001
0010
0100
1000
1001
1000
,
0100
0010
0011
0001
0010
0100
1001
0100
,
0010
0000
0100
0000
1001
0000
0100
0000
0010
0000
1000
0100
1000
0010
1000
0001
,
1100
0011
1100
0011
,
1010
0101
1010
0101
,
0011
1100
0011
1100
,
1001
0110
1001
0110
,
1001
1000
0010
0100
0001
1000
0010
0100
,
1001
1000
0010
0100
0001
1000
0010
0100
,
1001
0010
1001
0100
1001
0010
1001
0010
,
0100
0000
0101
0000
1100
0000
0010
0000
0100
0010
0100
0010
0100
0010
0100
0010
,
1001
0100
0010
0001
1000
0100
0010
0001
1000
0100
0010
0001
1000
0001
1000
0001
,
1000
0010
1000
0010
0100
0001
0100
0001
0100
0010
0001
0010
0100
0010
0001
0010
,
0100
1000
0010
0100
0001
0010
0100
1000
0100
1000
0100
0010
0001
1000
0100
0010
,
0001
0010
0001
0100
0001
0100
0001
1000
0001
1000
0001
0010
0100
1000
0100
0010
,
0001
0100
0010
1000
0001
0100
0010
1000
0001
0010
0100
1000
0100
0010
0100
1000
,
0100
0010
0100
0010
0001
0010
0100
1000
0001
0010
0100
1000
0100
0010
0100
0010
,
0001
0010
0001
0010
0100
0010
0100
0010
0100
1000
0100
0010
0100
1000
0010
0001
,
0010
0100
1000
0001
0010
0100
1000
0001
0010
0100
1000
0001
0010
0100
1000
0010
,
1001
0100
1000
0100
0010
0100
0010
0001
1000
0001
1000
0001
0100
0010
0100
0010
,
1000
0010
0001
1000
0010
0001
1000
0010
0001
1000
0010
0001
1000
0010
0001
0010
,
0100
1000
0100
1000
0100
0010
0100
0010
0001
0010
0001
1000
0001
1000
0001
1000
,
0001
0010
0001
0010
0100
0010
0100
1000
0100
1000
0100
1000
0001
1000
0001
1000
,
0001
0010
0001
0010
0100
0010
0100
1000
0100
1000
0001
1000
0001
0100
0001
0100
,
0001
0100
1000
0001
0100
1000
0001
0100
1000
0001
0100
1000
0001
0010
0001
0010
,
0100
1000
0100
1000
0100
0010
0100
0010
0001
0010
0001
1000
0001
1000
0001
1000
,
0001
0010
0001
0010
0100
0010
0100
1000
0100
1000
0100
1000
0011
1000
0011
1100
,
0011
0100
0010
0001
1010
0100
0010
0001
1000
0100
0010
0001
1100
0001
1000
0001
,
1000
0010
1000
0010
1100
0001
0100
0001
0100
0010
0001
0010
1100
0010
0001
0010
,
0100
1000
0010
0100
1001
0010
0100
1000
0100
1000
0100
0010
0101
1000
0100
0010
,
0001
0010
0001
0100
0011
0100
0001
1000
0001
1000
0001
0010
0101
1000
0100
0010
,
0001
0100
0010
1000
0011
0100
0010
1000
0001
0010
0100
1000
0101
0010
0100
1000
,
0100
0010
0100
0010
1001
0010
0100
1000
0001
0010
0100
1000
0101
0010
0100
0010
,
0001
0010
0001
0010
1100
0010
0100
0010
0100
1000
0100
0010
0101
1000
0010
0001
,
0010
0100
1000
0001
1010
0100
1000
0001
0010
0100
1000
0001
1010
0100
0011
1100
,
0011
0100
1000
0100
0010
0100
0010
0001
0010
0001
1000
0001
1000
0010
1000
0010
,
1100
0010
0001
1100
0010
0001
1100
0010
0001
1100
0010
0001
1100
0010
0001
0010
,
0100
1000
0100
1000
0100
0010
0100
0010
0001
0010
0001
1000
0001
1000
0001
1000
,
0101
0010
0001
0010
1100
0010
0100
1000
0110
1000
0100
1000
0101
1000
0101
1000
,
0101
0010
0001
0010
0100
0010
0100
1000
0100
1000
0001
1000
0001
0100
0001
0100
,
0011
0100
1000
0011
0100
1000
0011
0100
1000
0011
0100
1000
0001
0010
0001
0010
,
0100
1000
0100
1000
0100
0010
0100
0010
0001
0010
0001
1000
0001
1000
0001
1000
,
0012
0000
1000
0000
0010
0000
1003
0000
1001
0100
0011
1100
0011
1100
0011
1100
,
0011
0010
1100
1000
0011
0010
1100
1000
,
1010
0100
0101
0010
1010
0100
0101
0001
,
0011
0010
1100
1000
0011
0010
1100
1000
,
0110
0010
1001
0100
0110
0010
1001
0110
,
1001
1000
1100
1000
1001
1000
1100
1000
,
1001
0001
0101
0001
1001
0001
0101
0001
,
0011
0010
1100
1000
1010
0010
0011
0001
,
0101
0000
0100
0000
0110
0000
0010
0000
1001
0000
0100
0000
1001
0000
0010
0100
,
1001
0010
0100
0001
1000
0100
0010
0001
1000
0010
0100
0001
1000
0100
0010
0001
,
0010
0100
1000
0100
0001
0100
1000
0100
0001
0100
1000
0100
0001
0010
0100
1000
,
0001
0100
0010
1000
0001
0010
0100
1000
0001
0100
0010
1000
0001
0010
0100
1000
,
0001
0010
1000
0010
0001
0010
1000
0010
0001
0010
1000
0010
0001
0010
1000
0100
,
0010
0001
0100
1000
0010
0001
0100
1000
0010
0001
0100
1000
0010
0001
0100
1000
,
0001
0010
1000
0100
0001
0010
1000
0100
0001
0010
1000
0100
0001
0010
1000
0100
,
0010
0001
0010
0100
1000
0100
0010
0001
0010
0100
1000
0100
0010
0001
0010
0100
,
1000
0010
0100
0001
1000
0010
0100
0001
1000
0100
0010
0001
1000
0100
0010
0001
1000
0010
0100
0001
1000
0010
0100
0001
1000
0100
0010
0001
1000
0100
0010
0001
,
2100
0000
0000
0000
0000
0000
0000
0000
3000
0000
1000
0000
0010
0100
1000
0000
,
1001
0010
1100
0010
1000
0010
1100
0010
,
0100
0001
0110
0001
0100
0001
0110
0001
,
1000
0001
1010
0001
1000
0001
1010
0001
,
1000
0010
1100
0010
0100
0010
1001
0110
,
1001
0100
0011
0100
1000
0100
0011
0001
,
0010
0100
1100
0001
0010
0100
1100
1000
,
0100
0010
0011
1000
0100
0010
0011
0100
,
0010
0000
0100
0000
1001
0000
0010
0000
0100
0000
0010
0000
1001
0000
0001
0010
,
1100
0000
0000
1010
0000
0000
1001
0000
0000
0000
0010
0000
0100
0000
0010
0000
,
0011
0000
0000
0101
0000
0000
1001
0000
0000
0000
0010
0000
0100
0000
0010
0000
,
1001
0000
0000
0110
0000
0000
1001
0000
0000
0000
0100
0000
0010
0000
0100
0000
,
1001
0000
0000
0110
0000
0000
1001
0000
0000
0000
0001
0000
0010
0000
0100
0000
,
1100
0000
0000
1100
0000
0000
1100
0000
0000
0000
0100
0000
0010
0000
0001
0000
,
0011
0000
0000
0011
0000
0000
0011
0000
0000
0000
1000
0000
0001
0000
1000
0000
,
1010
0000
0000
0101
0000
0000
1010
0000
0000
0000
0001
0000
1000
0000
0001
0000
,
0101
0000
0000
1010
0000
0000
0101
0000
0000
0000
0100
0000
0010
0100
0010
0000
,
1001
0001
0010
0100
0000
0001
0010
0100
,
0000
0100
0001
0100
0000
0100
1000
0100
,
0000
1000
0100
0010
0000
1000
0100
0010
,
0000
0010
1000
0010
0000
0010
0001
0010
,
0000
1000
0001
1000
0000
0001
1000
0001
,
0000
0010
0100
0010
0000
0100
0010
0100
,
0000
1000
0010
0100
0000
0001
0100
0010
,
0000
0000
1000
0000
0010
0000
0100
0000
0000
0000
1000
0001
1000
0001
1000
0001
,
1100
0000
0001
1010
0100
0000
1001
0000
0000
0000
0010
0000
0100
0000
0010
0000
,
0011
0000
1000
0101
0010
0000
1001
0000
0000
0000
0010
0000
0100
0000
0010
0000
,
1001
0000
1000
0110
0001
0000
1001
0000
0000
0000
0100
0000
0010
0000
0100
0000
,
1001
0000
0001
0110
1000
0000
1001
0000
0000
0000
0001
0000
0010
0000
0100
0000
,
1100
0000
0001
1100
0001
0000
1100
0000
0000
0000
0100
0000
0010
0000
0001
0000
,
0011
0000
1000
0011
1000
0000
0011
0000
0000
0000
1000
0000
0001
0000
1000
0000
,
1010
0000
0010
0101
0010
0000
1010
0000
0000
0000
0001
0000
1000
0000
0001
0000
,
2002
0000
0000
0000
0000
0000
0000
0000
0003
0000
0001
3000
0100
0010
0100
0000
,
1001
0100
0010
0001
1000
0100
0010
0001
1000
0100
0010
0001
1000
0001
1000
0001
,
1000
0010
1000
0010
0100
0001
0100
0001
0100
0010
0001
0010
0100
0010
0001
0010
,
0100
1000
0010
0100
0001
0010
0100
1000
0100
1000
0100
0010
0001
1000
0100
0010
,
0001
0010
0001
0100
0001
0100
0001
1000
0001
1000
0001
0010
0100
1000
0100
0010
,
0001
0100
0010
1000
0001
0100
0010
1000
0001
0010
0100
1000
0100
0010
0100
1000
,
0100
0010
0100
0010
0001
0010
0100
1000
0001
0010
0100
1000
0100
0010
0100
0010
,
0001
0010
0001
0010
0100
0010
0100
0010
0100
1000
0100
0010
0100
1000
0010
0001
,
0010
0100
1000
0001
0010
0100
1000
0001
0010
0100
1000
0001
0010
0100
1000
0010
,
1001
0100
1000
0100
0010
0100
0010
0001
0010
0001
1000
0001
1000
0010
1000
0010
,
1000
0010
0001
1000
0010
0001
1000
0010
0001
1000
0010
0001
1000
0010
0001
0010
,
0100
1000
0100
1000
0100
0010
0100
0010
0001
0010
0001
1000
0001
1000
0001
1000
,
0001
0010
0001
0010
0100
0010
0100
1000
0100
1000
0100
1000
0001
1000
0001
1000
,
0001
0010
0001
0010
0100
0010
0100
1000
0100
1000
0001
1000
0001
0100
0001
0100
,
0001
0100
1000
0001
0100
1000
0001
0100
1000
0001
0100
1000
0001
0010
0001
0010
,
0100
1000
0100
1000
0100
0010
0100
0010
0001
0010
0001
1000
0001
1000
0001
1000
,
0001
0010
0001
0010
0100
0010
0100
1000
0100
1000
0100
1000
0011
1000
0011
1100
,
0011
0100
0010
0001
1010
0100
0010
0001
1000
0100
0010
0001
1100
0001
1000
0001
,
1000
0010
1000
0010
1100
0001
0100
0001
0100
0010
0001
0010
1100
0010
0001
0010
,
0100
1000
0010
0100
1001
0010
0100
1000
0100
1000
0100
0010
0101
1000
0100
0010
,
0001
0010
0001
0100
0011
0100
0001
1000
0001
1000
0001
0010
0101
1000
0100
0010
,
0001
0100
0010
1000
0011
0100
0010
1000
0001
0010
0100
1000
0101
0010
0100
1000
,
0100
0010
0100
0010
1001
0010
0100
1000
0001
0010
0100
1000
0101
0010
0100
0010
,
0001
0010
0001
0010
1100
0010
0100
0010
0100
1000
0100
0010
0101
1000
0010
0001
,
0010
0100
1000
0001
1010
0100
1000
0001
0010
0100
1000
0001
1010
0100
0011
1100
,
0011
0100
1000
0100
0010
0100
0010
0001
0010
0001
1000
0001
1000
0010
1000
0010
,
1100
0010
0001
1100
0010
0001
1100
0010
0001
1100
0010
0001
1100
0010
0001
0010
,
0100
1000
0100
1000
0100
0010
0100
0010
0001
0010
0001
1000
0001
1000
0001
1000
,
0101
0010
0001
0010
1100
0010
0100
1000
0110
1000
0100
1000
0101
1000
0101
1000
,
0101
0010
0001
0010
0100
0010
0100
1000
0100
1000
0001
1000
0001
0100
0001
0100
,
0011
0100
1000
0011
0100
1000
0011
0100
1000
0011
0100
1000
0001
0010
0001
0010
,
0100
1000
0100
1000
0100
0010
0100
0010
0001
0010
0001
1000
0001
1000
0001
1000
,
0012
0000
1000
0000
0010
0000
1003
0000
1001
0100
0011
1100
0011
1100
0011
1100
,
0011
0000
0000
0000
;
